TRI.BE – Kiss [Bugs]

You must be logged in to view this content.

Media info

General

Full name: TRI.BE KISS_Tribe_1080p.mp4
Format : MPEG-4
Format profile: Basic media / Version 2
Codec ID: mp42 (mp42/mp41)
File Size : 1.32 GiB
Duration: 3 min 7 sec
Overall bit rate mode: Variable
Total bit rate: 60.5 Mb/s
Encoded date: UTC 2022-08-01 06:32:28
Tagged date: UTC 2022-08-01 06:34:13
©TIM : 00:00:00:00
©TSC: 24000
© TSZ : 1001

Video

ID : 1
Format : AVC
Format/info: Advanced video codec
Format profile: Main@L5.1
Format options, CABAC: Yes
Format options, ReFrames: 2 frames
Codec ID: avc1
Codec ID/info: Advanced video encoding
Duration: 3 min 7 sec
Bit rate mode: Variable
Bit rate: 60.2 Mb/s
Maximum Bit Rate: 768 kb/s
Width: 3840 pixels
Height : 2 160 pixels
Screen format: 16:9
Frame rate mode: Constant
Frame rate: 23,976 (24000/1001) FPS
Color space: YUV
Chroma subsampling: 4:2:0
Bit depth: 8 bits
Scan type: Progressive
Bits/(Pixel*Frame): 0.302
Stream size: 1.31 GiB (99%)
Language : English
Encoded date: UTC 2022-08-01 06:32:29
Tagged date: UTC 2022-08-01 06:32:29
Color Range: Limited
Primary Colors: BT.709
Transfer Properties: BT.709
Matrix coefficients: BT.709

Sound

ID : 2
Format : AAC
Format/info: Advanced audio codec
Format profile: LC
Codec ID: 40
Duration: 3 min 7 sec
Duration of the source: 3 min 7 sec
Bit rate mode: Variable
Bit rate: 317 kb/s
Maximum Bit Rate: 466 kb/s
Channel(s): 2 channels
Channel positions: Cover: LR
Sampling rate: 48.0 kHz
Frame rate: 46,875 FPS (1024 spf)
Compression mode: Losing
Stream size: 7.08 MiB (1%)
Source current size: 7.08 MiB (1%)
Language : English
Encoded date: UTC 2022-08-01 06:32:29
Tagged date: UTC 2022-08-01 06:32:29

Leave a Reply

Your email address will not be published.