Connect with us

Entertainment

PRIKIL – Fantastic girls [Bugs]

PRIKIL – Fantastic girls [Bugs]

You must be logged in to view this content.

Media info

General

Full name: PRIKIL Amazing Girls_1080p.mp4
Format: MPEG-4
Profile format: Fast time
Codec ID: qt 0000.02 (qt)
File size: 408 MiB
Duration: 3 min 28 sec
Total bit rate mode: Variable
Total bit rate: 16.4 Mb / s
Coded date: UTC 2022-05-02 08:08:09
Tagged date: UTC 2022-05-02 08:08:09
Writing application: Blackmagic Design DaVinci Resolve Studio

Video

ID: 1
Format: AVC
Format / info: Advanced video codec
Profile format: High @ L4
Format settings, CABAC: Yes
Format Options, ReFrames: 2 frames
Format settings, GOP: M = 2, N = 120
Codec ID: avc1
Codec ID / info: Advanced video encoding
Duration: 3 min 28 sec
Bit rate mode: Variable
Bit rate: 16.1 Mb / s
Maximum bit rate: 768 kb / s
Width: 1920 pixels
Height: 1080 pixels
Screen format: 16: 9
Frame rate mode: Constant
Frame rate: 23.976 (24000/1001) FPS
Color space: YUV
Chroma subsampling: 4: 2: 0
Bit depth: 8 bits
Scan type: Progressive
Bits / (Pixel * Frame): 0.324
Stream size: 400 MiB (98%)
Coded date: UTC 2022-05-02 08:08:09
Tagged date: UTC 2022-05-02 08:08:09
Color range: Limited
Primary colors: BT.709
Matrix coefficients: BT.709

Sound

ID: 2
Format: AAC
Format / info: Advanced audio codec
Profile format: LC
Codec ID: 40
Duration: 3 min 28 sec
Bit rate mode: Constant
Bit rate: 320 kb / s
Channel (s): 2 channels
Channel positions: Front page: LR
Sampling rate: 48.0 kHz
Frame rate: 46,875 FPS (1024 spf)
Compression mode: Lost
Stream size: 7.94 MiB (2%)
Default: Yes
Alternative group: 1
Coded date: UTC 2022-05-02 08:08:09
Tagged date: UTC 2022-05-02 08:08:09

Other things

ID: 3
Type: Time code
Format: QuickTime TC
Duration: 3 min 28 sec
Time code for first image: 00: 00: 00: 00
Time code, striped: Yes
Language: English
Default: None
Coded date: UTC 2022-05-02 08:08:09
Tagged date: UTC 2022-05-02 08:08:09
Click to comment

Leave a Reply

Your email address will not be published.