[B] 221002 SBS UHD Inkigayo: MIRAE x NCT127

You must be logged in to view this content.

Media info

General

Full name: 221002 SBS UHD Inkigayo NCT127 – Faster.mp4
Format : MPEG-4
Format profile: Basic media
Codec ID: isom (isom/iso2/avc1/mp41)
File Size : 2.46 GiB
Duration: 6 min 22 sec
Overall bit rate mode: Variable
Total bit rate: 55.2 Mb/s
Encoded date: UTC 1904-01-01 00:00:00
Tagged date: UTC 1904-01-01 00:00:00
Write application: Lowf58.27.103

Video

ID : 1
Format : AVC
Format/info: Advanced video codec
Format profile: High@L5.2
Format options, CABAC: Yes
Format options, ReFrames: 4 frames
Codec ID: avc1
Codec ID/info: Advanced video encoding
Duration: 6 min 21 sec
Bit rate mode: Variable
Bit rate: 54.8 Mb/s
Maximum Bit Rate: 120 Mb/s
Width: 3840 pixels
Height : 2 160 pixels
Screen format: 16:9
Frame rate mode: Constant
Frame rate: 60,000 FPS
Color space: YUV
Chroma subsampling: 4:2:0
Bit Depth: 8 bits
Scan type: Progressive
Bits/(Pixel*Frame): 0.110
Stream size: 2.44 GiB (99%)
Encoded date: UTC 1904-01-01 00:00:00
Tagged date: UTC 1904-01-01 00:00:00
Color Range: Limited
Primary Colors: BT.709
Transfer Properties: BT.709
Matrix coefficients: BT.709

Sound

ID : 2
Format : AAC
Format/info: Advanced audio codec
Format profile: LC
Codec ID: 40
Duration: 6 min 22 sec
Bit rate mode: Constant
Bit rate: 384 kb/s
Channel(s): 2 channels
Channel positions: Cover: LR
Sampling rate: 48.0 kHz
Frame rate: 46,875 FPS (1024 spf)
Compression mode: Losing
Stream size: 17.2 MiB (1%)
Standard : Yes
Alternative group: 1
Encoded date: UTC 1904-01-01 00:00:00
Tagged date: UTC 1904-01-01 00:00:00

Leave a Reply

Your email address will not be published. Required fields are marked *