220701 Arirang Simply KPOP

You must be logged in to view this content.

Media info

General

Full name: 220701 Arirang Simply KPOP LAPILLUS – HIT YA! .Mp4
Format: MPEG-4
Profile format: Basic media
Codec ID: isom (isom / iso2 / mp41)
File size: 544 MiB
Duration: 5 min 16 sec
Total bit rate mode: Variable
Total bit rate: 14.4 Mb / s
Coded date: UTC 1904-01-01 00:00:00
Tagged date: UTC 1904-01-01 00:00:00
Writing application: Lavf58.27.103

Video

ID: 1
Format: HEVC
Format / info: High-efficiency video coding
Profile format: Main @ L4.1 @ Main
Codec ID: hev1
Codec ID / info: High-efficiency video coding
Duration: 5 min 16 sec
Bit rate: 14.0 Mb / s
Width: 1920 pixels
Height: 1080 pixels
Screen format: 16: 9
Frame rate mode: Variable
Frame rate: 59,940 (60000/1001) FPS
Minimum frame rate: 19,982 FPS
Maximum frame rate: 90,000,000 FPS
Color space: YUV
Chroma subsampling: 4: 2: 0
Bit depth: 8 bits
Bits / (Pixel * Frame): 0.113
Stream size: 529 MiB (97%)
Coded date: UTC 1904-01-01 00:00:00
Tagged date: UTC 1904-01-01 00:00:00
Color range: Limited
Primary colors: BT.709
Transfer properties: BT.709
Matrix coefficients: BT.709

Sound

ID: 2
Format: AAC
Format / info: Advanced audio codec
Profile format: LC
Codec ID: 40
Duration: 5 min 16 sec
Bit rate mode: Variable
Bit rate: 384 kbps
Channel (s): 2 channels
Channel positions: Front page: LR
Sampling rate: 48.0 kHz
Frame rate: 46,875 FPS (1024 spf)
Compression mode: Lost
Stream size: 14.4 MiB (3%)
Language: English
Default: Yes
Alternative group: 1
Coded date: UTC 1904-01-01 00:00:00
Tagged date: UTC 1904-01-01 00:00:00

Leave a Reply

Your email address will not be published.