Connect with us

Entertainment

220513 KBS UHD Musikbank LE SSERAFIM

You must be logged in to view this content.

Media info

General

Full name: 220513 KBS UHD Musikbank LE SSERAFIM – FRYGTLØS.mp4
Format: MPEG-4
Profile format: Basic media
Codec ID: isom (isom / iso2 / avc1 / mp41)
File size: 1.09 GiB
Duration: 3 min 11 sec
Total bit rate mode: Variable
Total bit rate: 49.2 Mb / s
Coded date: UTC 1904-01-01 00:00:00
Tagged date: UTC 1904-01-01 00:00:00
Writing application: Lavf58.27.103

Video

ID: 1
Format: AVC
Format / info: Advanced video codec
Profile format: High@L5.2
Format settings, CABAC: Yes
Format Options, ReFrames: 4 frames
Codec ID: avc1
Codec ID / info: Advanced video encoding
Duration: 3 min 10 sec
Bit rate mode: Variable
Bit rate: 48.9 Mb / s
Maximum bit rate: 120 Mb / s
Width: 3,840 pixels
Height: 2,160 pixels
Screen format: 16: 9
Frame rate mode: Constant
Frame rate: 60,000 FPS
Color space: YUV
Chroma subsampling: 4: 2: 0
Bit depth: 8 bits
Scan type: Progressive
Bits / (Pixel * Frame): 0.098
Stream size: 1.09 GiB (99%)
Coded date: UTC 1904-01-01 00:00:00
Tagged date: UTC 1904-01-01 00:00:00
Color range: Limited
Primary colors: BT.709
Transfer properties: BT.709
Matrix coefficients: BT.709

Sound

ID: 2
Format: AAC
Format / info: Advanced audio codec
Profile format: LC
Codec ID: 40
Duration: 3 min 11 sec
Bit rate mode: Constant
Bit rate: 384 kbps
Channel (s): 2 channels
Channel positions: Front page: LR
Sampling rate: 48.0 kHz
Frame rate: 46,875 FPS (1024 spf)
Compression mode: Lost
Stream size: 8.79 MiB (1%)
Default: Yes
Alternative group: 1
Coded date: UTC 1904-01-01 00:00:00
Tagged date: UTC 1904-01-01 00:00:00
Click to comment

Leave a Reply

Your email address will not be published.