220501 SBS UHD Mode IVE

You must be logged in to view this content.

Media info

General

Full name: 220501 SBS UHD Inkigayo IVE – LOVE DIVE.mp4
Format: MPEG-4
Profile format: Basic media
Codec ID: isom (isom / iso2 / mp41)
File size: 979 MiB
Duration: 3 min 7 sec
Total bit rate: 43.9 Mb / s
Coded date: UTC 1904-01-01 00:00:00
Tagged date: UTC 1904-01-01 00:00:00
Writing application: Lavf58.27.103

Video

ID: 1
Format: HEVC
Format / info: Highly efficient video coding
Profile format: Main @ L5.2 @ High
Codec ID: hev1
Codec ID / info: Highly efficient video coding
Duration: 3 min 6 sec
Bit rate: 43.5 Mb / s
Width: 3,840 pixels
Height: 2,160 pixels
Screen format: 16: 9
Frame rate mode: Constant
Frame rate: 60,000 FPS
Color space: YUV
Chroma subsampling: 4: 2: 0
Bit depth: 8 bits
Bits / (Pixel * Frame): 0.087
Stream size: 971 MiB (99%)
Coded date: UTC 1904-01-01 00:00:00
Tagged date: UTC 1904-01-01 00:00:00
Color range: Limited
Primary colors: BT.709
Transfer properties: BT.709
Matrix coefficients: BT.709

Sound

ID: 2
Format: AAC
Format / info: Advanced audio codec
Profile format: LC
Codec ID: 40
Duration: 3 min 7 sec
Bit rate mode: Constant
Bit rate: 384 kbps
Channel (s): 2 channels
Channel positions: Front page: LR
Sampling rate: 48.0 kHz
Frame rate: 46,875 FPS (1024 spf)
Compression mode: Lost
Stream size: 8.61 MiB (1%)
Default: Yes
Alternative group: 1
Coded date: UTC 1904-01-01 00:00:00
Tagged date: UTC 1904-01-01 00:00:00

Leave a Comment

Your email address will not be published.