220424 SBS mode

You must be logged in to view this content.

Media info

General

Full name: 220424 SBS Inkigayo KYOUNG SEO – Dear My X.mp4
Format: MPEG-4
Profile format: Basic media
Codec ID: isom (isom / iso2 / avc1 / mp41)
File size: 210 MiB
Duration: 3 min 20 sec
Total bit rate: 8 823 kb / s
Coded date: UTC 1904-01-01 00:00:00
Tagged date: UTC 1904-01-01 00:00:00
Writing application: Lavf58.27.103

Video

ID: 1
Format: AVC
Format / info: Advanced video codec
Profile format: High@L4.2
Format settings, CABAC: Yes
Format Options, ReFrames: 4 frames
Codec ID: avc1
Codec ID / info: Advanced video encoding
Duration: 3 min 20 sec
Bit rate: 8 681 kb / s
Width: 1920 pixels
Height: 1080 pixels
Screen format: 16: 9
Frame rate mode: Constant
Frame rate: 60,000 FPS
Color space: YUV
Chroma subsampling: 4: 2: 0
Bit depth: 8 bits
Scan type: Progressive
Bits / (Pixel * Frame): 0.070
Stream size: 207 MiB (98%)
Writing library: x264 core 157 r2970 5493be8
Encoding settings: cabac = 1 / ref = 3 / deblock = 1: 0: 0 / analysis = 0x3: 0x113 / me = hex / subme = 7 / psy = 1 / psy_rd = 1.00: 0.00 / mixed_ref = 1 / me_range = 16 / chroma_me = 1 / trellis = 1 / 8x8dct = 1 / cqm = 0 / deadzone = 21.11 / fast_pskip = 1 / chroma_qp_offset = -2 / threads = 24 / lookahead_threads = 4 / sliced_threads = 0 / nr = 0 / decimate = 1 / interlaced = 0 / bluray_compat = 0 / constrained_intra = 0 / bframes = 3 / b_pyramid = 2 / b_adapt = 1 / b_bias = 0 / direct = 1 / weightb = 1 / open_gop = 0 / weightp = 2 / keyint = 250 / keyint_min = 25 / scenecut = 40 / intra_refresh = 0 / rc_lookahead = 40 / rc = crf / mbtree = 1 / crf = 22.0 / qcomp = 0.60 / qpmin = 0 / qpmax = 69 / qpstep = 4 / ip_ratio = 1.40 / aq0 = 1:
Coded date: UTC 1904-01-01 00:00:00
Tagged date: UTC 1904-01-01 00:00:00

Sound

ID: 2
Format: AAC
Format / info: Advanced audio codec
Profile format: LC
Codec ID: 40
Duration: 3 min 20 sec
Bit rate mode: Constant
Bit rate: 129 kb / s
Channel (s): 2 channels
Channel positions: Front page: LR
Sampling rate: 48.0 kHz
Frame rate: 46,875 FPS (1024 spf)
Compression mode: Lost
Stream size: 3.07 MiB (1%)
Default: Yes
Alternative group: 1
Coded date: UTC 1904-01-01 00:00:00
Tagged date: UTC 1904-01-01 00:00:00

Leave a Reply

Your email address will not be published.